  0
SECTION
  2
HEADER
  9
$ACADVER
  1
AC1015
  9
$ACADMAINTVER
 70
    20
  9
$DWGCODEPAGE
  3
ANSI_936
  9
$INSBASE
 10
0.0
 20
0.0
 30
0.0
  9
$EXTMIN
 10
8194.818346446195
 20
-41.18018003642191
 30
-0.0015258207003583
  9
$EXTMAX
 10
10413.82125968206
 20
1929.940120256692
 30
0.0000000349246037
  9
$LIMMIN
 10
0.0
 20
0.0
  9
$LIMMAX
 10
12.0
 20
9.0
  9
$ORTHOMODE
 70
     1
  9
$REGENMODE
 70
     1
  9
$FILLMODE
 70
     1
  9
$QTEXTMODE
 70
     0
  9
$MIRRTEXT
 70
     0
  9
$LTSCALE
 40
1.0
  9
$ATTMODE
 70
     1
  9
$TEXTSIZE
 40
0.2
  9
$TRACEWID
 40
0.05
  9
$TEXTSTYLE
  7
Standard
  9
$CLAYER
  8
0
  9
$CELTYPE
  6
ByLayer
  9
$CECOLOR
 62
   256
  9
$CELTSCALE
 40
1.0
  9
$DISPSILH
 70
     0
  9
$DIMSCALE
 40
1.0
  9
$DIMASZ
 40
15.0
  9
$DIMEXO
 40
0.625
  9
$DIMDLI
 40
3.75
  9
$DIMRND
 40
0.0
  9
$DIMDLE
 40
0.0
  9
$DIMEXE
 40
1.25
  9
$DIMTP
 40
0.0
  9
$DIMTM
 40
0.0
  9
$DIMTXT
 40
25.0
  9
$DIMCEN
 40
12.0
  9
$DIMTSZ
 40
0.0
  9
$DIMTOL
 70
     0
  9
$DIMLIM
 70
     0
  9
$DIMTIH
 70
     0
  9
$DIMTOH
 70
     1
  9
$DIMSE1
 70
     0
  9
$DIMSE2
 70
     0
  9
$DIMTAD
 70
     1
  9
$DIMZIN
 70
     8
  9
$DIMBLK
  1

  9
$DIMASO
 70
     1
  9
$DIMSHO
 70
     1
  9
$DIMPOST
  1

  9
$DIMAPOST
  1

  9
$DIMALT
 70
     0
  9
$DIMALTD
 70
     3
  9
$DIMALTF
 40
0.03937007874016
  9
$DIMLFAC
 40
1.0
  9
$DIMTOFL
 70
     1
  9
$DIMTVP
 40
0.0
  9
$DIMTIX
 70
     0
  9
$DIMSOXD
 70
     0
  9
$DIMSAH
 70
     0
  9
$DIMBLK1
  1

  9
$DIMBLK2
  1

  9
$DIMSTYLE
  2
ISO-25
  9
$DIMCLRD
 70
   256
  9
$DIMCLRE
 70
   256
  9
$DIMCLRT
 70
     0
  9
$DIMTFAC
 40
1.0
  9
$DIMGAP
 40
0.625
  9
$DIMJUST
 70
     0
  9
$DIMSD1
 70
     0
  9
$DIMSD2
 70
     0
  9
$DIMTOLJ
 70
     0
  9
$DIMTZIN
 70
     8
  9
$DIMALTZ
 70
     0
  9
$DIMALTTZ
 70
     0
  9
$DIMUPT
 70
     0
  9
$DIMDEC
 70
     2
  9
$DIMTDEC
 70
     2
  9
$DIMALTU
 70
     2
  9
$DIMALTTD
 70
     3
  9
$DIMTXSTY
  7
Standard
  9
$DIMAUNIT
 70
     0
  9
$DIMADEC
 70
     0
  9
$DIMALTRND
 40
0.0
  9
$DIMAZIN
 70
     0
  9
$DIMDSEP
 70
    44
  9
$DIMATFIT
 70
     3
  9
$DIMFRAC
 70
     0
  9
$DIMLDRBLK
  1

  9
$DIMLUNIT
 70
     2
  9
$DIMLWD
 70
     9
  9
$DIMLWE
 70
     9
  9
$DIMTMOVE
 70
     0
  9
$LUNITS
 70
     2
  9
$LUPREC
 70
     4
  9
$SKETCHINC
 40
0.1
  9
$FILLETRAD
 40
90.0
  9
$AUNITS
 70
     0
  9
$AUPREC
 70
     0
  9
$MENU
  1
.
  9
$ELEVATION
 40
0.0
  9
$PELEVATION
 40
0.0
  9
$THICKNESS
 40
0.0
  9
$LIMCHECK
 70
     0
  9
$CHAMFERA
 40
0.0
  9
$CHAMFERB
 40
0.0
  9
$CHAMFERC
 40
0.0
  9
$CHAMFERD
 40
0.0
  9
$SKPOLY
 70
     0
  9
$TDCREATE
 40
2453580.369012581
  9
$TDUCREATE
 40
2453580.035679248
  9
$TDUPDATE
 40
2454917.661572084
  9
$TDUUPDATE
 40
2454917.328238750
  9
$TDINDWG
 40
1.1393599884
  9
$TDUSRTIMER
 40
1.1393599884
  9
$USRTIMER
 70
     1
  9
$ANGBASE
 50
0.0
  9
$ANGDIR
 70
     0
  9
$PDMODE
 70
     0
  9
$PDSIZE
 40
0.0
  9
$PLINEWID
 40
0.0
  9
$SPLFRAME
 70
     0
  9
$SPLINETYPE
 70
     6
  9
$SPLINESEGS
 70
     8
  9
$HANDSEED
  5
18AC
  9
$SURFTAB1
 70
     6
  9
$SURFTAB2
 70
     6
  9
$SURFTYPE
 70
     6
  9
$SURFU
 70
     6
  9
$SURFV
 70
     6
  9
$UCSBASE
  2

  9
$UCSNAME
  2

  9
$UCSORG
 10
0.0
 20
0.0
 30
0.0
  9
$UCSXDIR
 10
1.0
 20
0.0
 30
0.0
  9
$UCSYDIR
 10
0.0
 20
1.0
 30
0.0
  9
$UCSORTHOREF
  2

  9
$UCSORTHOVIEW
 70
     1
  9
$UCSORGTOP
 10
0.0
 20
0.0
 30
0.0
  9
$UCSORGBOTTOM
 10
0.0
 20
0.0
 30
0.0
  9
$UCSORGLEFT
 10
0.0
 20
0.0
 30
0.0
  9
$UCSORGRIGHT
 10
0.0
 20
0.0
 30
0.0
  9
$UCSORGFRONT
 10
0.0
 20
0.0
 30
0.0
  9
$UCSORGBACK
 10
0.0
 20
0.0
 30
0.0
  9
$PUCSBASE
  2

  9
$PUCSNAME
  2

  9
$PUCSORG
 10
0.0
 20
0.0
 30
0.0
  9
$PUCSXDIR
 10
1.0
 20
0.0
 30
0.0
  9
$PUCSYDIR
 10
0.0
 20
1.0
 30
0.0
  9
$PUCSORTHOREF
  2

  9
$PUCSORTHOVIEW
 70
     0
  9
$PUCSORGTOP
 10
0.0
 20
0.0
 30
0.0
  9
$PUCSORGBOTTOM
 10
0.0
 20
0.0
 30
0.0
  9
$PUCSORGLEFT
 10
0.0
 20
0.0
 30
0.0
  9
$PUCSORGRIGHT
 10
0.0
 20
0.0
 30
0.0
  9
$PUCSORGFRONT
 10
0.0
 20
0.0
 30
0.0
  9
$PUCSORGBACK
 10
0.0
 20
0.0
 30
0.0
  9
$USERI1
 70
     0
  9
$USERI2
 70
     0
  9
$USERI3
 70
     0
  9
$USERI4
 70
     0
  9
$USERI5
 70
     0
  9
$USERR1
 40
0.0
  9
$USERR2
 40
0.0
  9
$USERR3
 40
0.0
  9
$USERR4
 40
0.0
  9
$USERR5
 40
0.0
  9
$WORLDVIEW
 70
     1
  9
$SHADEDGE
 70
     3
  9
$SHADEDIF
 70
    70
  9
$TILEMODE
 70
     1
  9
$MAXACTVP
 70
    64
  9
$PINSBASE
 10
0.0
 20
0.0
 30
0.0
  9
$PLIMCHECK
 70
     0
  9
$PEXTMIN
 10
0.0
 20
0.0
 30
0.0
  9
$PEXTMAX
 10
0.0
 20
0.0
 30
0.0
  9
$PLIMMIN
 10
0.0
 20
0.0
  9
$PLIMMAX
 10
12.0
 20
9.0
  9
$UNITMODE
 70
     0
  9
$VISRETAIN
 70
     1
  9
$PLINEGEN
 70
     0
  9
$PSLTSCALE
 70
     1
  9
$TREEDEPTH
 70
  3020
  9
$CMLSTYLE
  2
Standard
  9
$CMLJUST
 70
     0
  9
$CMLSCALE
 40
1.0
  9
$PROXYGRAPHICS
 70
     1
  9
$MEASUREMENT
 70
     0
  9
$CELWEIGHT
370
    -1
  9
$ENDCAPS
280
     0
  9
$JOINSTYLE
280
     0
  9
$LWDISPLAY
290
     0
  9
$INSUNITS
 70
     1
  9
$HYPERLINKBASE
  1

  9
$STYLESHEET
  1

  9
$XEDIT
290
     1
  9
$CEPSNTYPE
380
     0
  9
$PSTYLEMODE
290
     1
  9
$FINGERPRINTGUID
  2
{FDEAD576-A652-11D2-9A35-0060089B3A3F}
  9
$VERSIONGUID
  2
{980625AA-B5AA-4432-A958-8FDFBBFC28F4}
  9
$EXTNAMES
290
     1
  9
$PSVPSCALE
 40
0.0
  9
$OLESTARTUP
290
     0
  0
ENDSEC
  0
SECTION
  2
CLASSES
  0
CLASS
  1
ACDBDICTIONARYWDFLT
  2
AcDbDictionaryWithDefault
  3
ObjectDBX Classes
 90
        0
280
     0
281
     0
  0
CLASS
  1
ACDBPLACEHOLDER
  2
AcDbPlaceHolder
  3
ObjectDBX Classes
 90
        0
280
     0
281
     0
  0
CLASS
  1
LAYOUT
  2
AcDbLayout
  3
ObjectDBX Classes
 90
        0
280
     0
281
     0
  0
CLASS
  1
DICTIONARYVAR
  2
AcDbDictionaryVar
  3
ObjectDBX Classes
 90
        0
280
     0
281
     0
  0
CLASS
  1
DIMASSOC
  2
AcDbDimAssoc
  3
"AcDbDimAssoc|Product Desc:     AcDim ARX App For Dimension|Company:          Autodesk, Inc.|WEB Address:      www.autodesk.com"
 90
        0
280
     0
281
     0
  0
CLASS
  1
TABLESTYLE
  2
AcDbTableStyle
  3
ObjectDBX Classes
 90
     2047
280
     0
281
     0
  0
ENDSEC
  0
SECTION
  2
TABLES
  0
TABLE
  2
VPORT
  5
8
330
0
100
AcDbSymbolTable
 70
     2
  0
VPORT
  5
18A4
330
8
100
AcDbSymbolTableRecord
100
AcDbViewportTableRecord
  2
*Active
 70
     0
 10
0.0
 20
0.0
 11
1.0
 21
1.0
 12
9355.886952267558
 22
910.4337201057237
 13
0.0
 23
0.0
 14
0.5
 24
0.5
 15
0.5
 25
0.5
 16
0.0
 26
0.0
 36
1.0
 17
0.0
 27
0.0
 37
0.0
 40
770.1151774498813
 41
1.586251621271076
 42
50.0
 43
0.0
 44
0.0
 50
0.0
 51
0.0
 71
     0
 72
  1000
 73
     1
 74
     3
 75
     0
 76
     0
 77
     0
 78
     0
281
     0
 65
     1
110
0.0
120
0.0
130
0.0
111
1.0
121
0.0
131
0.0
112
0.0
122
1.0
132
0.0
 79
     1
146
0.0
  0
ENDTAB
  0
TABLE
  2
LTYPE
  5
5
330
0
100
AcDbSymbolTable
 70
     2
  0
LTYPE
  5
14
330
5
100
AcDbSymbolTableRecord
100
AcDbLinetypeTableRecord
  2
ByBlock
 70
     0
  3

 72
    65
 73
     0
 40
0.0
  0
LTYPE
  5
15
330
5
100
AcDbSymbolTableRecord
100
AcDbLinetypeTableRecord
  2
ByLayer
 70
     0
  3

 72
    65
 73
     0
 40
0.0
  0
LTYPE
  5
16
330
5
100
AcDbSymbolTableRecord
100
AcDbLinetypeTableRecord
  2
Continuous
 70
     0
  3
Solid line
 72
    65
 73
     0
 40
0.0
  0
LTYPE
  5
5F7
330
5
100
AcDbSymbolTableRecord
100
AcDbLinetypeTableRecord
  2
HIDDEN2
 70
     0
  3
Hidden (.5x) _ _ _ _ _ _ _ _ _ _ _ _ _ _ _ _ _
 72
    65
 73
     2
 40
0.1875
 49
0.125
 74
     0
 49
-0.0625
 74
     0
  0
ENDTAB
  0
TABLE
  2
LAYER
  5
2
330
0
100
AcDbSymbolTable
 70
     4
  0
LAYER
  5
10
330
2
100
AcDbSymbolTableRecord
100
AcDbLayerTableRecord
  2
0
 70
     0
 62
     7
  6
Continuous
370
    -3
390
F
  0
LAYER
  5
167
330
2
100
AcDbSymbolTableRecord
100
AcDbLayerTableRecord
  2
Defpoints
 70
     0
 62
     7
  6
Continuous
290
     0
370
    -3
390
F
  0
LAYER
  5
168
330
2
100
AcDbSymbolTableRecord
100
AcDbLayerTableRecord
  2
Title Block
 70
     0
 62
     7
  6
Continuous
370
    -3
390
F
  0
LAYER
  5
5F8
330
2
100
AcDbSymbolTableRecord
100
AcDbLayerTableRecord
  2
图层1
 70
     0
 62
     7
  6
HIDDEN2
370
    -3
390
F
  0
ENDTAB
  0
TABLE
  2
STYLE
  5
3
330
0
100
AcDbSymbolTable
 70
     3
  0
STYLE
  5
11
330
3
100
AcDbSymbolTableRecord
100
AcDbTextStyleTableRecord
  2
Standard
 70
     0
 40
0.0
 41
1.0
 50
0.0
 71
     0
 42
0.2
  3
TIMES.TTF
  4

1001
ACAD
1000
Times New Roman
1071
       18
  0
STYLE
  5
169
330
3
100
AcDbSymbolTableRecord
100
AcDbTextStyleTableRecord
  2
Roman
 70
     0
 40
0.0
 41
1.0
 50
0.0
 71
     0
 42
0.065
  3
romans
  4

  0
STYLE
  5
5F6
330
3
100
AcDbSymbolTableRecord
100
AcDbTextStyleTableRecord
  2

 70
     1
 40
0.0
 41
1.0
 50
0.0
 71
     0
 42
0.2
  3
ltypeshp.shx
  4

  0
ENDTAB
  0
TABLE
  2
VIEW
  5
6
330
0
100
AcDbSymbolTable
 70
     0
  0
ENDTAB
  0
TABLE
  2
UCS
  5
7
330
0
100
AcDbSymbolTable
 70
     0
  0
ENDTAB
  0
TABLE
  2
APPID
  5
9
330
0
100
AcDbSymbolTable
 70
     2
  0
APPID
  5
12
330
9
100
AcDbSymbolTableRecord
100
AcDbRegAppTableRecord
  2
ACAD
 70
     0
  0
APPID
  5
183C
330
9
100
AcDbSymbolTableRecord
100
AcDbRegAppTableRecord
  2
DCO15
 70
     0
  0
ENDTAB
  0
TABLE
  2
DIMSTYLE
  5
A
330
0
100
AcDbSymbolTable
 70
     3
100
AcDbDimStyleTable
 71
     1
340
16A
  0
DIMSTYLE
105
27
330
A
100
AcDbSymbolTableRecord
100
AcDbDimStyleTableRecord
  2
Standard
 70
     0
340
11
  0
DIMSTYLE
105
16A
102
{ACAD_REACTORS
330
1309
330
1321
330
1339
330
1349
330
1359
330
1369
330
1379
330
1389
330
1399
330
13A9
330
145D
330
146D
330
1488
330
14A0
330
14CA
330
14D9
102
}
330
A
100
AcDbSymbolTableRecord
100
AcDbDimStyleTableRecord
  2
ISO-25
 70
     0
 41
15.0
 42
0.625
 43
3.75
 44
1.25
 73
     0
 77
     1
 78
     8
140
25.0
141
12.0
143
0.03937007874016
147
0.625
171
     3
172
     1
176
   256
177
   256
271
     2
272
     2
274
     3
278
    44
283
     0
284
     8
340
11
371
     9
372
     9
  0
DIMSTYLE
105
16B
330
A
100
AcDbSymbolTableRecord
100
AcDbDimStyleTableRecord
  2
1
 70
     0
 41
8.0
 42
3.0
 43
3.75
 44
1.25
 73
     0
 74
     0
 77
     1
 78
     8
140
15.0
141
2.5
143
0.03937007874016
147
0.625
171
     3
172
     1
271
     2
272
     2
274
     3
278
    44
283
     0
284
     8
340
11
  0
ENDTAB
  0
TABLE
  2
BLOCK_RECORD
  5
1
330
0
100
AcDbSymbolTable
 70
    17
  0
BLOCK_RECORD
  5
1F
330
1
100
AcDbSymbolTableRecord
100
AcDbBlockTableRecord
  2
*Model_Space
340
22
  0
BLOCK_RECORD
  5
58
330
1
100
AcDbSymbolTableRecord
100
AcDbBlockTableRecord
  2
*Paper_Space
340
59
  0
BLOCK_RECORD
  5
5D
330
1
100
AcDbSymbolTableRecord
100
AcDbBlockTableRecord
  2
*Paper_Space0
340
5E
  0
BLOCK_RECORD
  5
130A
330
1
100
AcDbSymbolTableRecord
100
AcDbBlockTableRecord
  2
*D1
340
0
  0
BLOCK_RECORD
  5
1322
330
1
100
AcDbSymbolTableRecord
100
AcDbBlockTableRecord
  2
*D2
340
0
  0
BLOCK_RECORD
  5
133A
330
1
100
AcDbSymbolTableRecord
100
AcDbBlockTableRecord
  2
*D3
340
0
  0
BLOCK_RECORD
  5
134A
330
1
100
AcDbSymbolTableRecord
100
AcDbBlockTableRecord
  2
*D4
340
0
  0
BLOCK_RECORD
  5
135A
330
1
100
AcDbSymbolTableRecord
100
AcDbBlockTableRecord
  2
*D5
340
0
  0
BLOCK_RECORD
  5
136A
330
1
100
AcDbSymbolTableRecord
100
AcDbBlockTableRecord
  2
*D6
340
0
  0
BLOCK_RECORD
  5
137A
330
1
100
AcDbSymbolTableRecord
100
AcDbBlockTableRecord
  2
*D7
340
0
  0
BLOCK_RECORD
  5
138A
330
1
100
AcDbSymbolTableRecord
100
AcDbBlockTableRecord
  2
*D8
340
0
  0
BLOCK_RECORD
  5
139A
330
1
100
AcDbSymbolTableRecord
100
AcDbBlockTableRecord
  2
*D9
340
0
  0
BLOCK_RECORD
  5
13AA
330
1
100
AcDbSymbolTableRecord
100
AcDbBlockTableRecord
  2
*D10
340
0
  0
BLOCK_RECORD
  5
145E
330
1
100
AcDbSymbolTableRecord
100
AcDbBlockTableRecord
  2
*D11
340
0
  0
BLOCK_RECORD
  5
146E
330
1
100
AcDbSymbolTableRecord
100
AcDbBlockTableRecord
  2
*D12
340
0
  0
BLOCK_RECORD
  5
1489
330
1
100
AcDbSymbolTableRecord
100
AcDbBlockTableRecord
  2
*D13
340
0
  0
BLOCK_RECORD
  5
14A1
330
1
100
AcDbSymbolTableRecord
100
AcDbBlockTableRecord
  2
*D14
340
0
  0
BLOCK_RECORD
  5
14CB
330
1
100
AcDbSymbolTableRecord
100
AcDbBlockTableRecord
  2
*D15
340
0
  0
BLOCK_RECORD
  5
14DA
330
1
100
AcDbSymbolTableRecord
100
AcDbBlockTableRecord
  2
*D16
340
0
  0
ENDTAB
  0
ENDSEC
  0
SECTION
  2
BLOCKS
  0
BLOCK
  5
20
330
1F
100
AcDbEntity
  8
0
100
AcDbBlockBegin
  2
*Model_Space
 70
     0
 10
0.0
 20
0.0
 30
0.0
  3
*Model_Space
  1

  0
ENDBLK
  5
21
330
1F
100
AcDbEntity
  8
0
100
AcDbBlockEnd
  0
BLOCK
  5
5A
330
58
100
AcDbEntity
 67
     1
  8
0
100
AcDbBlockBegin
  2
*Paper_Space
 70
     0
 10
0.0
 20
0.0
 30
0.0
  3
*Paper_Space
  1

  0
ENDBLK
  5
5B
330
58
100
AcDbEntity
 67
     1
  8
0
100
AcDbBlockEnd
  0
BLOCK
  5
5F
330
5D
100
AcDbEntity
 67
     1
  8
0
100
AcDbBlockBegin
  2
*Paper_Space0
 70
     0
 10
0.0
 20
0.0
 30
0.0
  3
*Paper_Space0
  1

  0
ENDBLK
  5
60
330
5D
100
AcDbEntity
 67
     1
  8
0
100
AcDbBlockEnd
  0
BLOCK
  5
1314
330
130A
100
AcDbEntity
  8
0
100
AcDbBlockBegin
  2
*D1
 70
     1
 10
0.0
 20
0.0
 30
0.0
  3
*D1
  1

  0
LINE
  5
1317
330
130A
100
AcDbEntity
  8
0
370
     9
100
AcDbLine
 10
8913.503440531057
 20
943.7549655210412
 30
0.0
 11
8913.503440531057
 21
662.5351225311877
 31
0.0
  0
LINE
  5
1318
330
130A
100
AcDbEntity
  8
0
370
     9
100
AcDbLine
 10
9695.50344053106
 20
943.7549655210418
 30
0.0
 11
9695.50344053106
 21
662.5351225311877
 31
0.0
  0
LINE
  5
1319
330
130A
100
AcDbEntity
  8
0
370
     9
100
AcDbLine
 10
8928.503440531057
 20
663.7851225311877
 30
0.0
 11
9680.503440531062
 21
663.7851225311877
 31
0.0
  0
SOLID
  5
131A
330
130A
100
AcDbEntity
  8
0
100
AcDbTrace
 10
8928.503440531057
 20
666.2851225311879
 30
0.0
 11
8928.503440531057
 21
661.2851225311877
 31
0.0
 12
8913.503440531057
 22
663.7851225311877
 32
0.0
 13
8913.503440531057
 23
663.7851225311877
 33
0.0
  0
SOLID
  5
131B
330
130A
100
AcDbEntity
  8
0
100
AcDbTrace
 10
9680.503440531062
 20
666.2851225311879
 30
0.0
 11
9680.503440531062
 21
661.2851225311877
 31
0.0
 12
9695.50344053106
 22
663.7851225311877
 32
0.0
 13
9695.50344053106
 23
663.7851225311877
 33
0.0
  0
MTEXT
  5
131C
330
130A
100
AcDbEntity
  8
0
 62
     0
100
AcDbMText
 10
9304.50344053106
 20
677.1624657179217
 30
0.0
 40
25.0
 41
0.0
 71
     5
 72
     1
  1
782
 73
     1
 44
1.0
1001
ACAD
1000
MTEXTBEGIN
1070
    73
1070
     1
1070
    44
1040
1.0
1070
    74
1070
     0
1000
MTEXTEND
  0
POINT
  5
131D
330
130A
100
AcDbEntity
  8
Defpoints
 62
     0
100
AcDbPoint
 10
8913.503440531057
 20
944.3799655210412
 30
0.0
  0
POINT
  5
131E
330
130A
100
AcDbEntity
  8
Defpoints
 62
     0
100
AcDbPoint
 10
9695.50344053106
 20
944.3799655210415
 30
0.0
  0
POINT
  5
131F
330
130A
100
AcDbEntity
  8
Defpoints
 62
     0
100
AcDbPoint
 10
9695.50344053106
 20
663.7851225311877
 30
0.0
  0
ENDBLK
  5
1315
330
130A
100
AcDbEntity
  8
0
100
AcDbBlockEnd
  0
BLOCK
  5
132C
330
1322
100
AcDbEntity
  8
0
100
AcDbBlockBegin
  2
*D2
 70
     1
 10
0.0
 20
0.0
 30
0.0
  3
*D2
  1

  0
LINE
  5
132F
330
1322
100
AcDbEntity
  8
0
370
     9
100
AcDbLine
 10
9507.12844053106
 20
1158.87996552104
 30
0.0
 11
9773.984440654281
 21
1158.87996552104
 31
0.0
  0
LINE
  5
1330
330
1322
100
AcDbEntity
  8
0
370
     9
100
AcDbLine
 10
9507.12844053106
 20
729.8799655210402
 30
0.0
 11
9773.984440654281
 21
729.8799655210402
 31
0.0
  0
LINE
  5
1331
330
1322
100
AcDbEntity
  8
0
370
     9
100
AcDbLine
 10
9772.73444065428
 20
1143.87996552104
 30
0.0
 11
9772.73444065428
 21
744.8799655210405
 31
0.0
  0
SOLID
  5
1332
330
1322
100
AcDbEntity
  8
0
100
AcDbTrace
 10
9770.234440654281
 20
1143.87996552104
 30
0.0
 11
9775.23444065428
 21
1143.87996552104
 31
0.0
 12
9772.73444065428
 22
1158.87996552104
 32
0.0
 13
9772.73444065428
 23
1158.87996552104
 33
0.0
  0
SOLID
  5
1333
330
1322
100
AcDbEntity
  8
0
100
AcDbTrace
 10
9770.234440654281
 20
744.8799655210405
 30
0.0
 11
9775.23444065428
 21
744.8799655210405
 31
0.0
 12
9772.73444065428
 22
729.8799655210402
 32
0.0
 13
9772.73444065428
 23
729.8799655210402
 33
0.0
  0
MTEXT
  5
1334
330
1322
100
AcDbEntity
  8
0
 62
     0
100
AcDbMText
 10
9759.357097467546
 20
944.3799655210419
 30
0.0
 40
25.0
 41
0.0
 71
     5
 72
     1
  1
429
 11
0.0000000000000001
 21
1.0
 31
0.0
 73
     1
 44
1.0
1001
ACAD
1000
MTEXTBEGIN
1070
    73
1070
     1
1070
    44
1040
1.0
1070
    74
1070
     0
1000
MTEXTEND
  0
POINT
  5
1335
330
1322
100
AcDbEntity
  8
Defpoints
 62
     0
100
AcDbPoint
 10
9506.50344053106
 20
1158.87996552104
 30
0.0
  0
POINT
  5
1336
330
1322
100
AcDbEntity
  8
Defpoints
 62
     0
100
AcDbPoint
 10
9506.50344053106
 20
729.8799655210402
 30
0.0
  0
POINT
  5
1337
330
1322
100
AcDbEntity
  8
Defpoints
 62
     0
100
AcDbPoint
 10
9772.73444065428
 20
729.8799655210402
 30
0.0
  0
ENDBLK
  5
132D
330
1322
100
AcDbEntity
  8
0
100
AcDbBlockEnd
  0
BLOCK
  5
1340
330
133A
100
AcDbEntity
  8
0
100
AcDbBlockBegin
  2
*D3
 70
     1
 10
0.0
 20
0.0
 30
0.0
  3
*D3
  1

  0
LINE
  5
1343
330
133A
100
AcDbEntity
  8
0
370
     9
100
AcDbLine
 10
9009.292174811648
 20
824.4100632893591
 30
0.0
 11
8952.527149085021
 21
774.1179962350056
 31
0.0
  0
MTEXT
  5
1344
330
133A
100
AcDbEntity
  8
0
 62
     0
100
AcDbMText
 10
8977.652282318571
 20
814.2504499045399
 30
0.0
 40
25.0
 41
0.0
 71
     5
 72
     1
  1
R90
 11
0.748493452796338
 21
0.6631421801702984
 31
0.0
 73
     1
 44
1.0
1001
ACAD
1000
MTEXTBEGIN
1070
    73
1070
     1
1070
    44
1040
1.0
1070
    74
1070
     0
1000
MTEXTEND
  0
SOLID
  5
1345
330
133A
100
AcDbEntity
  8
0
100
AcDbTrace
 10
8950.869293634594
 20
775.9892298669963
 30
0.0
 11
8954.185004535446
 21
772.2467626030146
 31
0.0
 12
8941.299747293077
 22
764.1708635324508
 32
0.0
 13
8941.299747293077
 23
764.1708635324508
 33
0.0
  0
POINT
  5
1346
330
133A
100
AcDbEntity
  8
Defpoints
 62
     0
100
AcDbPoint
 10
8941.299747293077
 20
764.1708635324508
 30
0.0
  0
POINT
  5
1347
330
133A
100
AcDbEntity
  8
Defpoints
 62
     0
100
AcDbPoint
 10
9008.664158044739
 20
823.8536597477716
 30
0.0
  0
ENDBLK
  5
1341
330
133A
100
AcDbEntity
  8
0
100
AcDbBlockEnd
  0
BLOCK
  5
1350
330
134A
100
AcDbEntity
  8
0
100
AcDbBlockBegin
  2
*D4
 70
     1
 10
0.0
 20
0.0
 30
0.0
  3
*D4
  1

  0
LINE
  5
1353
330
134A
100
AcDbEntity
  8
0
370
     9
100
AcDbLine
 10
9041.379775290812
 20
962.7594515956925
 30
0.0
 11
8928.636644829103
 21
964.2696367552574
 31
0.0
  0
MTEXT
  5
1354
330
134A
100
AcDbEntity
  8
0
 62
     0
100
AcDbMText
 10
8992.686226842753
 20
976.7541887382392
 30
0.0
 40
25.0
 41
0.0
 71
     5
 72
     1
  1
R1500
 11
0.9999103001359975
 21
-0.013393718002841
 31
0.0
 73
     1
 44
1.0
1001
ACAD
1000
MTEXTBEGIN
1070
    73
1070
     1
1070
    44
1040
1.0
1070
    74
1070
     0
1000
MTEXTEND
  0
SOLID
  5
1355
330
134A
100
AcDbEntity
  8
0
100
AcDbTrace
 10
8928.67012912411
 20
966.7694125055971
 30
0.0
 11
8928.603160534096
 21
961.7698610049172
 31
0.0
 12
8913.637990327062
 22
964.4705425252999
 32
0.0
 13
8913.637990327062
 23
964.4705425252999
 33
0.0
  0
POINT
  5
1356
330
134A
100
AcDbEntity
  8
Defpoints
 62
     0
100
AcDbPoint
 10
8913.637990327062
 20
964.4705425252999
 30
0.0
  0
POINT
  5
1357
330
134A
100
AcDbEntity
  8
Defpoints
 62
     0
100
AcDbPoint
 10
10413.50344053106
 20
944.3799655210384
 30
0.0
  0
ENDBLK
  5
1351
330
134A
100
AcDbEntity
  8
0
100
AcDbBlockEnd
  0
BLOCK
  5
1360
330
135A
100
AcDbEntity
  8
0
100
AcDbBlockBegin
  2
*D5
 70
     1
 10
0.0
 20
0.0
 30
0.0
  3
*D5
  1

  0
LINE
  5
1363
330
135A
100
AcDbEntity
  8
0
370
     9
100
AcDbLine
 10
9599.711174972204
 20
824.4060518433407
 30
0.0
 11
9656.795385013579
 21
774.476570389028
 31
0.0
  0
MTEXT
  5
1364
330
135A
100
AcDbEntity
  8
0
 62
     0
100
AcDbMText
 10
9631.415137392124
 20
814.4481751630983
 30
0.0
 40
25.0
 41
0.0
 71
     5
 72
     1
  1
R90
 11
0.7527021599494783
 21
-0.6583611914499443
 31
0.0
 73
     1
 44
1.0
1001
ACAD
1000
MTEXTBEGIN
1070
    73
1070
     1
1070
    44
1040
1.0
1070
    74
1070
     0
1000
MTEXTEND
  0
SOLID
  5
1365
330
135A
100
AcDbEntity
  8
0
100
AcDbTrace
 10
9658.441287992204
 20
776.3583257889023
 30
0.0
 11
9655.149482034953
 21
772.5948149891546
 31
0.0
 12
9668.08591741282
 22
764.6011525172789
 32
0.0
 13
9668.08591741282
 23
764.6011525172789
 33
0.0
  0
POINT
  5
1366
330
135A
100
AcDbEntity
  8
Defpoints
 62
     0
100
AcDbPoint
 10
9668.08591741282
 20
764.6011525172789
 30
0.0
  0
POINT
  5
1367
330
135A
100
AcDbEntity
  8
Defpoints
 62
     0
100
AcDbPoint
 10
9600.342723017366
 20
823.8536597477748
 30
0.0
  0
ENDBLK
  5
1361
330
135A
100
AcDbEntity
  8
0
100
AcDbBlockEnd
  0
BLOCK
  5
1370
330
136A
100
AcDbEntity
  8
0
100
AcDbBlockBegin
  2
*D6
 70
     1
 10
0.0
 20
0.0
 30
0.0
  3
*D6
  1

  0
LINE
  5
1373
330
136A
100
AcDbEntity
  8
0
370
     9
100
AcDbLine
 10
9599.822255223909
 20
1064.248165499948
 30
0.0
 11
9646.866170677817
 21
1123.732870871246
 31
0.0
  0
MTEXT
  5
1374
330
136A
100
AcDbEntity
  8
0
 62
     0
100
AcDbMText
 10
9608.199286704161
 20
1096.405993235688
 30
0.0
 40
25.0
 41
0.0
 71
     5
 72
     1
  1
R90
 11
0.6203126354725757
 21
0.7843546610259084
 31
0.0
 73
     1
 44
1.0
1001
ACAD
1000
MTEXTBEGIN
1070
    73
1070
     1
1070
    44
1040
1.0
1070
    74
1070
     0
1000
MTEXTEND
  0
SOLID
  5
1375
330
136A
100
AcDbEntity
  8
0
100
AcDbTrace
 10
9644.90528402525
 20
1125.283652459928
 30
0.0
 11
9648.827057330379
 21
1122.182089282565
 31
0.0
 12
9656.170860209904
 22
1135.498190786636
 32
0.0
 13
9656.170860209904
 23
1135.498190786636
 33
0.0
  0
POINT
  5
1376
330
136A
100
AcDbEntity
  8
Defpoints
 62
     0
100
AcDbPoint
 10
9656.170860209904
 20
1135.498190786636
 30
0.0
  0
POINT
  5
1377
330
136A
100
AcDbEntity
  8
Defpoints
 62
     0
100
AcDbPoint
 10
9600.342723017368
 20
1064.906271294301
 30
0.0
  0
ENDBLK
  5
1371
330
136A
100
AcDbEntity
  8
0
100
AcDbBlockEnd
  0
BLOCK
  5
1380
330
137A
100
AcDbEntity
  8
0
100
AcDbBlockBegin
  2
*D7
 70
     1
 10
0.0
 20
0.0
 30
0.0
  3
*D7
  1

  0
LINE
  5
1383
330
137A
100
AcDbEntity
  8
0
370
     9
100
AcDbLine
 10
9066.619795473597
 20
1030.526114623214
 30
0.0
 11
9062.846412732644
 21
1143.216201623861
 31
0.0
  0
MTEXT
  5
1384
330
137A
100
AcDbEntity
  8
0
 62
     0
100
AcDbMText
 10
9078.317919140042
 20
1079.82183685991
 30
0.0
 40
25.0
 41
0.0
 71
     5
 72
     1
  1
R1200
 11
0.033465846243392
 21
-0.9994398616901436
 31
0.0
 73
     1
 44
1.0
1001
ACAD
1000
MTEXTBEGIN
1070
    73
1070
     1
1070
    44
1040
1.0
1070
    74
1070
     0
1000
MTEXTEND
  0
SOLID
  5
1385
330
137A
100
AcDbEntity
  8
0
100
AcDbTrace
 10
9065.345012386869
 20
1143.299866239469
 30
0.0
 11
9060.347813078418
 21
1143.132537008253
 31
0.0
 12
9062.344425038997
 22
1158.207799549213
 32
0.0
 13
9062.344425038997
 23
1158.207799549213
 33
0.0
  0
POINT
  5
1386
330
137A
100
AcDbEntity
  8
Defpoints
 62
     0
100
AcDbPoint
 10
9062.344425038997
 20
1158.207799549213
 30
0.0
  0
POINT
  5
1387
330
137A
100
AcDbEntity
  8
Defpoints
 62
     0
100
AcDbPoint
 10
9102.503440531064
 20
-41.12003447895943
 30
0.0
  0
ENDBLK
  5
1381
330
137A
100
AcDbEntity
  8
0
100
AcDbBlockEnd
  0
BLOCK
  5
1390
330
138A
100
AcDbEntity
  8
0
100
AcDbBlockBegin
  2
*D8
 70
     1
 10
0.0
 20
0.0
 30
0.0
  3
*D8
  1

  0
LINE
  5
1393
330
138A
100
AcDbEntity
  8
0
370
     9
100
AcDbLine
 10
9074.123460917901
 20
858.0088531081308
 30
0.0
 11
9071.13913407236
 21
745.295109852033
 31
0.0
  0
MTEXT
  5
1394
330
138A
100
AcDbEntity
  8
0
 62
     0
100
AcDbMText
 10
9059.493185496322
 20
809.5024682784853
 30
0.0
 40
25.0
 41
0.0
 71
     5
 72
     1
  1
R1200
 11
0.0264677691634686
 21
0.9996496672312304
 31
0.0
 73
     1
 44
1.0
1001
ACAD
1000
MTEXTBEGIN
1070
    73
1070
     1
1070
    44
1040
1.0
1070
    74
1070
     0
1000
MTEXTEND
  0
SOLID
  5
1395
330
138A
100
AcDbEntity
  8
0
100
AcDbTrace
 10
9068.640009904283
 20
745.3612792749416
 30
0.0
 11
9073.638258240441
 21
745.2289404291243
 31
0.0
 12
9070.742117534908
 22
730.3003648435645
 32
0.0
 13
9070.742117534908
 23
730.3003648435645
 33
0.0
  0
POINT
  5
1396
330
138A
100
AcDbEntity
  8
Defpoints
 62
     0
100
AcDbPoint
 10
9070.742117534908
 20
730.3003648435645
 30
0.0
  0
POINT
  5
1397
330
138A
100
AcDbEntity
  8
Defpoints
 62
     0
100
AcDbPoint
 10
9102.503440531073
 20
1929.879965521045
 30
0.0
  0
ENDBLK
  5
1391
330
138A
100
AcDbEntity
  8
0
100
AcDbBlockEnd
  0
BLOCK
  5
13A0
330
139A
100
AcDbEntity
  8
0
100
AcDbBlockBegin
  2
*D9
 70
     1
 10
0.0
 20
0.0
 30
0.0
  3
*D9
  1

  0
LINE
  5
13A3
330
139A
100
AcDbEntity
  8
0
370
     9
100
AcDbLine
 10
9567.705073464756
 20
955.5081637030227
 30
0.0
 11
9680.454610289148
 21
956.4225331080686
 31
0.0
  0
MTEXT
  5
13A4
330
139A
100
AcDbEntity
  8
0
 62
     0
100
AcDbMText
 10
9616.471897627924
 20
969.2453828245099
 30
0.0
 40
25.0
 41
0.0
 71
     5
 72
     1
  1
R1500
 11
0.9999671176822138
 21
0.008109473122578
 31
0.0
 73
     1
 44
1.0
1001
ACAD
1000
MTEXTBEGIN
1070
    73
1070
     1
1070
    44
1040
1.0
1070
    74
1070
     0
1000
MTEXTEND
  0
SOLID
  5
13A5
330
139A
100
AcDbEntity
  8
0
100
AcDbTrace
 10
9680.434336606341
 20
958.922450902274
 30
0.0
 11
9680.474883971953
 21
953.9226153138633
 31
0.0
 12
9695.454117054381
 22
956.5441752049077
 32
0.0
 13
9695.454117054381
 23
956.5441752049077
 33
0.0
  0
POINT
  5
13A6
330
139A
100
AcDbEntity
  8
Defpoints
 62
     0
100
AcDbPoint
 10
9695.454117054381
 20
956.5441752049077
 30
0.0
  0
POINT
  5
13A7
330
139A
100
AcDbEntity
  8
Defpoints
 62
     0
100
AcDbPoint
 10
8195.50344053106
 20
944.3799655210403
 30
0.0
  0
ENDBLK
  5
13A1
330
139A
100
AcDbEntity
  8
0
100
AcDbBlockEnd
  0
BLOCK
  5
13B0
330
13AA
100
AcDbEntity
  8
0
100
AcDbBlockBegin
  2
*D10
 70
     1
 10
0.0
 20
0.0
 30
0.0
  3
*D10
  1

  0
LINE
  5
13B3
330
13AA
100
AcDbEntity
  8
0
370
     9
100
AcDbLine
 10
9009.148393028992
 20
1064.221065893985
 30
0.0
 11
8965.379479861503
 21
1126.155243812812
 31
0.0
  0
MTEXT
  5
13B4
330
13AA
100
AcDbEntity
  8
0
 62
     0
100
AcDbMText
 10
9002.517051266442
 20
1096.783710865343
 30
0.0
 40
25.0
 41
0.0
 71
     5
 72
     1
  1
R90
 11
0.5771290424432998
 21
-0.816652966913413
 31
0.0
 73
     1
 44
1.0
1001
ACAD
1000
MTEXTBEGIN
1070
    73
1070
     1
1070
    44
1040
1.0
1070
    74
1070
     0
1000
MTEXTEND
  0
SOLID
  5
13B5
330
13AA
100
AcDbEntity
  8
0
100
AcDbTrace
 10
8967.421112278788
 20
1127.59806641892
 30
0.0
 11
8963.33784744422
 21
1124.712421206704
 31
0.0
 12
8956.722544224852
 22
1138.405038316513
 32
0.0
 13
8956.722544224852
 23
1138.405038316513
 33
0.0
  0
POINT
  5
13B6
330
13AA
100
AcDbEntity
  8
Defpoints
 62
     0
100
AcDbPoint
 10
8956.722544224852
 20
1138.405038316513
 30
0.0
  0
POINT
  5
13B7
330
13AA
100
AcDbEntity
  8
Defpoints
 62
     0
100
AcDbPoint
 10
9008.664158044751
 20
1064.906271294305
 30
0.0
  0
ENDBLK
  5
13B1
330
13AA
100
AcDbEntity
  8
0
100
AcDbBlockEnd
  0
BLOCK
  5
1464
330
145E
100
AcDbEntity
  8
0
100
AcDbBlockBegin
  2
*D11
 70
     1
 10
0.0
 20
0.0
 30
0.0
  3
*D11
  1

  0
LINE
  5
1467
330
145E
100
AcDbEntity
  8
0
370
     9
100
AcDbLine
 10
9556.137543535143
 20
1029.977328363052
 30
0.0
 11
9561.356870260118
 21
1142.609707162669
 31
0.0
  0
MTEXT
  5
1468
330
145E
100
AcDbEntity
  8
0
 62
     0
100
AcDbMText
 10
9545.073040305044
 20
1079.419123399477
 30
0.0
 40
25.0
 41
0.0
 71
     5
 72
     1
  1
R1200
 11
0.0462898141173366
 21
0.9989280520182534
 31
0.0
 73
     1
 44
1.0
1001
ACAD
1000
MTEXTBEGIN
1070
    73
1070
     1
1070
    44
1040
1.0
1070
    74
1070
     0
1000
MTEXTEND
  0
SOLID
  5
1469
330
145E
100
AcDbEntity
  8
0
100
AcDbTrace
 10
9558.859550130076
 20
1142.725431697963
 30
0.0
 11
9563.854190390166
 21
1142.493982627376
 31
0.0
 12
9562.05121747188
 22
1157.593627942943
 32
0.0
 13
9562.05121747188
 23
1157.593627942943
 33
0.0
  0
POINT
  5
146A
330
145E
100
AcDbEntity
  8
Defpoints
 62
     0
100
AcDbPoint
 10
9562.05121747188
 20
1157.593627942943
 30
0.0
  0
POINT
  5
146B
330
145E
100
AcDbEntity
  8
Defpoints
 62
     0
100
AcDbPoint
 10
9506.503440531076
 20
-41.12003447895953
 30
0.0
  0
ENDBLK
  5
1465
330
145E
100
AcDbEntity
  8
0
100
AcDbBlockEnd
  0
BLOCK
  5
1474
330
146E
100
AcDbEntity
  8
0
100
AcDbBlockBegin
  2
*D12
 70
     1
 10
0.0
 20
0.0
 30
0.0
  3
*D12
  1

  0
LINE
  5
1477
330
146E
100
AcDbEntity
  8
0
370
     9
100
AcDbLine
 10
9553.400733299113
 20
858.6592838689565
 30
0.0
 11
9558.332267842072
 21
746.013937349117
 31
0.0
  0
MTEXT
  5
1478
330
146E
100
AcDbEntity
  8
0
 62
     0
100
AcDbMText
 10
9568.866997383343
 20
810.4129471849159
 30
0.0
 40
25.0
 41
0.0
 71
     5
 72
     1
  1
R1200
 11
0.0437374070135156
 21
-0.9990430617484586
 31
0.0
 73
     1
 44
1.0
1001
ACAD
1000
MTEXTBEGIN
1070
    73
1070
     1
1070
    44
1040
1.0
1070
    74
1070
     0
1000
MTEXTEND
  0
SOLID
  5
1479
330
146E
100
AcDbEntity
  8
0
100
AcDbTrace
 10
9560.829875496443
 20
746.1232808666506
 30
0.0
 11
9555.834660187702
 21
745.9045938315832
 31
0.0
 12
9558.988328947275
 22
731.0282914228903
 32
0.0
 13
9558.988328947275
 23
731.0282914228903
 33
0.0
  0
POINT
  5
147A
330
146E
100
AcDbEntity
  8
Defpoints
 62
     0
100
AcDbPoint
 10
9558.988328947275
 20
731.0282914228903
 30
0.0
  0
POINT
  5
147B
330
146E
100
AcDbEntity
  8
Defpoints
 62
     0
100
AcDbPoint
 10
9506.50344053106
 20
1929.879965521038
 30
0.0
  0
ENDBLK
  5
1475
330
146E
100
AcDbEntity
  8
0
100
AcDbBlockEnd
  0
BLOCK
  5
1493
330
1489
100
AcDbEntity
  8
0
100
AcDbBlockBegin
  2
*D13
 70
     1
 10
0.0
 20
0.0
 30
0.0
  3
*D13
  1

  0
LINE
  5
185A
330
1489
100
AcDbEntity
  8
0
370
     9
100
AcDbLine
 10
8909.503440531059
 20
943.7549655210412
 30
0.0
 11
8909.503440531059
 21
620.3540779959292
 31
0.0
  0
LINE
  5
185B
330
1489
100
AcDbEntity
  8
0
370
     9
100
AcDbLine
 10
9699.50344053106
 20
943.7549655210396
 30
0.0
 11
9699.50344053106
 21
620.3540779959292
 31
0.0
  0
LINE
  5
185C
330
1489
100
AcDbEntity
  8
0
370
     9
100
AcDbLine
 10
8924.50344053106
 20
621.6040779959294
 30
0.0
 11
9684.503440531059
 21
621.6040779959294
 31
0.0
  0
SOLID
  5
185D
330
1489
100
AcDbEntity
  8
0
100
AcDbTrace
 10
8924.50344053106
 20
624.1040779959294
 30
0.0
 11
8924.50344053106
 21
619.1040779959294
 31
0.0
 12
8909.503440531059
 22
621.6040779959294
 32
0.0
 13
8909.503440531059
 23
621.6040779959294
 33
0.0
  0
SOLID
  5
185E
330
1489
100
AcDbEntity
  8
0
100
AcDbTrace
 10
9684.503440531059
 20
624.1040779959294
 30
0.0
 11
9684.503440531059
 21
619.1040779959294
 31
0.0
 12
9699.50344053106
 22
621.6040779959294
 32
0.0
 13
9699.50344053106
 23
621.6040779959294
 33
0.0
  0
MTEXT
  5
185F
330
1489
100
AcDbEntity
  8
0
 62
     0
100
AcDbMText
 10
9304.50344053106
 20
634.9814211826632
 30
0.0
 40
25.0
 41
0.0
 71
     5
 72
     1
  1
790
 73
     1
 44
1.0
1001
ACAD
1000
MTEXTBEGIN
1070
    73
1070
     1
1070
    44
1040
1.0
1070
    74
1070
     0
1000
MTEXTEND
  0
POINT
  5
1860
330
1489
100
AcDbEntity
  8
Defpoints
 62
     0
100
AcDbPoint
 10
8909.503440531059
 20
944.379965521041
 30
0.0
  0
POINT
  5
1861
330
1489
100
AcDbEntity
  8
Defpoints
 62
     0
100
AcDbPoint
 10
9699.50344053106
 20
944.3799655210396
 30
0.0
  0
POINT
  5
1862
330
1489
100
AcDbEntity
  8
Defpoints
 62
     0
100
AcDbPoint
 10
9699.50344053106
 20
621.6040779959294
 30
0.0
  0
ENDBLK
  5
1494
330
1489
100
AcDbEntity
  8
0
100
AcDbBlockEnd
  0
BLOCK
  5
14AB
330
14A1
100
AcDbEntity
  8
0
100
AcDbBlockBegin
  2
*D14
 70
     1
 10
0.0
 20
0.0
 30
0.0
  3
*D14
  1

  0
LINE
  5
1879
330
14A1
100
AcDbEntity
  8
0
370
     9
100
AcDbLine
 10
9507.12844053106
 20
1162.87996552104
 30
0.0
 11
9825.362485303813
 21
1162.87996552104
 31
0.0
  0
LINE
  5
187A
330
14A1
100
AcDbEntity
  8
0
370
     9
100
AcDbLine
 10
9507.12844053106
 20
725.8799655210396
 30
0.0
 11
9825.362485303813
 21
725.8799655210396
 31
0.0
  0
LINE
  5
187B
330
14A1
100
AcDbEntity
  8
0
370
     9
100
AcDbLine
 10
9824.112485303814
 20
1147.87996552104
 30
0.0
 11
9824.112485303814
 21
740.8799655210397
 31
0.0
  0
SOLID
  5
187C
330
14A1
100
AcDbEntity
  8
0
100
AcDbTrace
 10
9821.612485303813
 20
1147.87996552104
 30
0.0
 11
9826.612485303813
 21
1147.87996552104
 31
0.0
 12
9824.112485303814
 22
1162.87996552104
 32
0.0
 13
9824.112485303814
 23
1162.87996552104
 33
0.0
  0
SOLID
  5
187D
330
14A1
100
AcDbEntity
  8
0
100
AcDbTrace
 10
9821.612485303813
 20
740.8799655210397
 30
0.0
 11
9826.612485303813
 21
740.8799655210397
 31
0.0
 12
9824.112485303814
 22
725.8799655210396
 32
0.0
 13
9824.112485303814
 23
725.8799655210396
 33
0.0
  0
MTEXT
  5
187E
330
14A1
100
AcDbEntity
  8
0
 62
     0
100
AcDbMText
 10
9810.735142117081
 20
944.3799655210415
 30
0.0
 40
25.0
 41
0.0
 71
     5
 72
     1
  1
437
 11
0.0000000000000001
 21
1.0
 31
0.0
 73
     1
 44
1.0
1001
ACAD
1000
MTEXTBEGIN
1070
    73
1070
     1
1070
    44
1040
1.0
1070
    74
1070
     0
1000
MTEXTEND
  0
POINT
  5
187F
330
14A1
100
AcDbEntity
  8
Defpoints
 62
     0
100
AcDbPoint
 10
9506.50344053106
 20
1162.87996552104
 30
0.0
  0
POINT
  5
1880
330
14A1
100
AcDbEntity
  8
Defpoints
 62
     0
100
AcDbPoint
 10
9506.50344053106
 20
725.8799655210396
 30
0.0
  0
POINT
  5
1881
330
14A1
100
AcDbEntity
  8
Defpoints
 62
     0
100
AcDbPoint
 10
9824.112485303814
 20
725.8799655210396
 30
0.0
  0
ENDBLK
  5
14AC
330
14A1
100
AcDbEntity
  8
0
100
AcDbBlockEnd
  0
BLOCK
  5
14D7
330
14CB
100
AcDbEntity
  8
0
100
AcDbBlockBegin
  2
*D15
 70
     1
 10
0.0
 20
0.0
 30
0.0
  3
*D15
  1

  0
LINE
  5
1863
330
14CB
100
AcDbEntity
  8
0
370
     9
100
AcDbLine
 10
9695.50344053106
 20
681.9391159942206
 30
0.0
 11
9695.50344053106
 21
662.5351225311877
 31
0.0
  0
LINE
  5
1864
330
14CB
100
AcDbEntity
  8
0
370
     9
100
AcDbLine
 10
9699.50344053106
 20
681.7206569990625
 30
0.0
 11
9699.50344053106
 21
662.5351225311877
 31
0.0
  0
LINE
  5
1865
330
14CB
100
AcDbEntity
  8
0
370
     9
100
AcDbLine
 10
9680.503440531062
 20
663.7851225311877
 30
0.0
 11
9665.503440531061
 21
663.7851225311877
 31
0.0
  0
LINE
  5
1866
330
14CB
100
AcDbEntity
  8
0
370
     9
100
AcDbLine
 10
9714.503440531061
 20
663.7851225311877
 30
0.0
 11
9747.354017315489
 21
663.7851225311877
 31
0.0
  0
LINE
  5
1867
330
14CB
100
AcDbEntity
  8
0
370
     9
100
AcDbLine
 10
9695.50344053106
 20
663.7851225311877
 30
0.0
 11
9699.50344053106
 21
663.7851225311877
 31
0.0
  0
SOLID
  5
1868
330
14CB
100
AcDbEntity
  8
0
100
AcDbTrace
 10
9680.503440531062
 20
666.2851225311877
 30
0.0
 11
9680.503440531062
 21
661.2851225311877
 31
0.0
 12
9695.50344053106
 22
663.7851225311877
 32
0.0
 13
9695.50344053106
 23
663.7851225311877
 33
0.0
  0
SOLID
  5
1869
330
14CB
100
AcDbEntity
  8
0
100
AcDbTrace
 10
9714.503440531061
 20
666.2851225311877
 30
0.0
 11
9714.503440531061
 21
661.2851225311877
 31
0.0
 12
9699.50344053106
 22
663.7851225311877
 32
0.0
 13
9699.50344053106
 23
663.7851225311877
 33
0.0
  0
MTEXT
  5
186A
330
14CB
100
AcDbEntity
  8
0
 62
     0
100
AcDbMText
 10
9738.428728923274
 20
676.9101225311877
 30
0.0
 40
25.0
 41
0.0
 71
     5
 72
     1
  1
4
 73
     1
 44
1.0
1001
ACAD
1000
MTEXTBEGIN
1070
    73
1070
     1
1070
    44
1040
1.0
1070
    74
1070
     0
1000
MTEXTEND
  0
POINT
  5
186B
330
14CB
100
AcDbEntity
  8
Defpoints
 62
     0
100
AcDbPoint
 10
9695.50344053106
 20
682.5641159942206
 30
0.0
  0
POINT
  5
186C
330
14CB
100
AcDbEntity
  8
Defpoints
 62
     0
100
AcDbPoint
 10
9699.50344053106
 20
682.3456569990626
 30
0.0
  0
POINT
  5
186D
330
14CB
100
AcDbEntity
  8
Defpoints
 62
     0
100
AcDbPoint
 10
9699.50344053106
 20
663.7851225311877
 30
0.0
  0
ENDBLK
  5
14D8
330
14CB
100
AcDbEntity
  8
0
100
AcDbBlockEnd
  0
BLOCK
  5
14E7
330
14DA
100
AcDbEntity
  8
0
100
AcDbBlockBegin
  2
*D16
 70
     1
 10
0.0
 20
0.0
 30
0.0
  3
*D16
  1

  0
LINE
  5
1882
330
14DA
100
AcDbEntity
  8
0
370
     9
100
AcDbLine
 10
9743.391165254973
 20
1158.87996552104
 30
0.0
 11
9773.984440654281
 21
1158.87996552104
 31
0.0
  0
LINE
  5
1883
330
14DA
100
AcDbEntity
  8
0
370
     9
100
AcDbLine
 10
9743.391165254973
 20
1162.87996552104
 30
0.0
 11
9773.984440654281
 21
1162.87996552104
 31
0.0
  0
LINE
  5
1884
330
14DA
100
AcDbEntity
  8
0
370
     9
100
AcDbLine
 10
9772.73444065428
 20
1143.87996552104
 30
0.0
 11
9772.73444065428
 21
1128.87996552104
 31
0.0
  0
LINE
  5
1885
330
14DA
100
AcDbEntity
  8
0
370
     9
100
AcDbLine
 10
9772.73444065428
 20
1177.87996552104
 30
0.0
 11
9772.73444065428
 21
1192.87996552104
 31
0.0
  0
LINE
  5
1886
330
14DA
100
AcDbEntity
  8
0
370
     9
100
AcDbLine
 10
9772.73444065428
 20
1192.87996552104
 30
0.0
 11
9789.960017438708
 21
1192.87996552104
 31
0.0
  0
LINE
  5
1887
330
14DA
100
AcDbEntity
  8
0
370
     9
100
AcDbLine
 10
9772.73444065428
 20
1158.87996552104
 30
0.0
 11
9772.73444065428
 21
1162.87996552104
 31
0.0
  0
SOLID
  5
1888
330
14DA
100
AcDbEntity
  8
0
100
AcDbTrace
 10
9770.234440654281
 20
1143.87996552104
 30
0.0
 11
9775.23444065428
 21
1143.87996552104
 31
0.0
 12
9772.73444065428
 22
1158.87996552104
 32
0.0
 13
9772.73444065428
 23
1158.87996552104
 33
0.0
  0
SOLID
  5
1889
330
14DA
100
AcDbEntity
  8
0
100
AcDbTrace
 10
9770.234440654281
 20
1177.87996552104
 30
0.0
 11
9775.23444065428
 21
1177.87996552104
 31
0.0
 12
9772.73444065428
 22
1162.87996552104
 32
0.0
 13
9772.73444065428
 23
1162.87996552104
 33
0.0
  0
MTEXT
  5
188A
330
14DA
100
AcDbEntity
  8
0
 62
     0
100
AcDbMText
 10
9781.659729046493
 20
1206.004965521042
 30
0.0
 40
25.0
 41
0.0
 71
     5
 72
     1
  1
4
 73
     1
 44
1.0
1001
ACAD
1000
MTEXTBEGIN
1070
    73
1070
     1
1070
    44
1040
1.0
1070
    74
1070
     0
1000
MTEXTEND
  0
POINT
  5
188B
330
14DA
100
AcDbEntity
  8
Defpoints
 62
     0
100
AcDbPoint
 10
9742.76616525497
 20
1158.87996552104
 30
0.0
  0
POINT
  5
188C
330
14DA
100
AcDbEntity
  8
Defpoints
 62
     0
100
AcDbPoint
 10
9742.76616525497
 20
1162.87996552104
 30
0.0
  0
POINT
  5
188D
330
14DA
100
AcDbEntity
  8
Defpoints
 62
     0
100
AcDbPoint
 10
9772.73444065428
 20
1162.87996552104
 30
0.0
  0
ENDBLK
  5
14E8
330
14DA
100
AcDbEntity
  8
0
100
AcDbBlockEnd
  0
ENDSEC
  0
SECTION
  2
ENTITIES
  0
ARC
  5
12DA
102
{ACAD_REACTORS
330
1320
330
1358
102
}
330
1F
100
AcDbEntity
  8
图层1
 48
100.0
100
AcDbCircle
 10
10413.50344053106
 20
944.3799655210396
 30
0.0
 40
1500.0
100
AcDbArc
 50
175.0963928522824
 51
184.9036071477175
  0
ARC
  5
12E1
102
{ACAD_REACTORS
330
1388
102
}
330
1F
100
AcDbEntity
  8
图层1
 48
100.0
100
AcDbCircle
 10
9102.503440531057
 20
-41.1200344789595
 30
0.0
 40
1200.0
100
AcDbArc
 50
90.0
 51
94.84956751306558
  0
ARC
  5
12E4
102
{ACAD_REACTORS
330
1398
102
}
330
1F
100
AcDbEntity
  8
图层1
 48
100.0
100
AcDbCircle
 10
9102.503440531057
 20
1929.87996552104
 30
0.0
 40
1200.0
100
AcDbArc
 50
265.1504324869344
 51
270.0
  0
ARC
  5
12E6
102
{ACAD_REACTORS
330
13B8
102
}
330
1F
100
AcDbEntity
  8
图层1
 48
100.0
100
AcDbCircle
 10
9008.66415804475
 20
1064.906271294305
 30
0.0
 40
90.0
100
AcDbArc
 50
94.84956751306505
 51
175.0963928522821
  0
ARC
  5
12E7
102
{ACAD_REACTORS
330
1348
102
}
330
1F
100
AcDbEntity
  8
图层1
 48
100.0
100
AcDbCircle
 10
9008.66415804475
 20
823.8536597477761
 30
0.0
 40
90.0
100
AcDbArc
 50
184.9036071477174
 51
265.150432486935
  0
ARC
  5
12ED
102
{ACAD_REACTORS
330
1368
102
}
330
1F
100
AcDbEntity
  8
图层1
 48
100.0
100
AcDbCircle
 10
9600.342723017368
 20
823.8536597477761
 30
0.0
 40
90.0
100
AcDbArc
 50
274.8495675130651
 51
355.0963928522826
  0
ARC
  5
12EE
102
{ACAD_REACTORS
330
1320
330
13A8
102
}
330
1F
100
AcDbEntity
  8
图层1
 48
100.0
100
AcDbCircle
 10
8195.50344053106
 20
944.3799655210396
 30
0.0
 40
1500.0
100
AcDbArc
 50
355.0963928522825
 51
4.903607147717575
  0
ARC
  5
12EF
102
{ACAD_REACTORS
330
147C
102
}
330
1F
100
AcDbEntity
  8
图层1
 48
100.0
100
AcDbCircle
 10
9506.50344053106
 20
1929.87996552104
 30
0.0
 40
1200.0
100
AcDbArc
 50
270.0
 51
274.8495675130656
  0
ARC
  5
12F2
102
{ACAD_REACTORS
330
1378
102
}
330
1F
100
AcDbEntity
  8
图层1
 48
100.0
100
AcDbCircle
 10
9600.342723017368
 20
1064.906271294305
 30
0.0
 40
90.0
100
AcDbArc
 50
4.903607147717805
 51
85.15043248693496
  0
ARC
  5
12F4
102
{ACAD_REACTORS
330
146C
102
}
330
1F
100
AcDbEntity
  8
图层1
 48
100.0
100
AcDbCircle
 10
9506.50344053106
 20
-41.1200344789595
 30
0.0
 40
1200.0
100
AcDbArc
 50
85.15043248693443
 51
90.0
  0
LINE
  5
12FA
102
{ACAD_REACTORS
330
1338
102
}
330
1F
100
AcDbEntity
  8
图层1
 48
100.0
100
AcDbLine
 10
9102.503440531057
 20
1158.87996552104
 30
0.0
 11
9506.50344053106
 21
1158.87996552104
 31
0.0
  0
LINE
  5
12FB
102
{ACAD_REACTORS
330
1338
102
}
330
1F
100
AcDbEntity
  8
图层1
 48
100.0
100
AcDbLine
 10
9102.503440531057
 20
729.8799655210402
 30
0.0
 11
9506.50344053106
 21
729.8799655210402
 31
0.0
  0
DIMENSION
  5
1309
102
{ACAD_XDICTIONARY
360
1316
102
}
102
{ACAD_REACTORS
330
1320
102
}
330
1F
100
AcDbEntity
  8
0
100
AcDbDimension
  2
*D1
 10
9695.50344053106
 20
663.7851225311877
 30
0.0
 11
9304.50344053106
 21
677.1624657179217
 31
0.0
 70
    32
 71
     5
 42
782.0000000000017
  3
ISO-25
100
AcDbAlignedDimension
 13
8913.503440531057
 23
944.3799655210412
 33
0.0
 14
9695.50344053106
 24
944.3799655210415
 34
0.0
100
AcDbRotatedDimension
  0
DIMENSION
  5
1321
102
{ACAD_XDICTIONARY
360
132E
102
}
102
{ACAD_REACTORS
330
1338
102
}
330
1F
100
AcDbEntity
  8
0
100
AcDbDimension
  2
*D2
 10
9772.73444065428
 20
729.8799655210402
 30
0.0
 11
9759.357097467546
 21
944.3799655210419
 31
0.0
 70
    32
 71
     5
 42
428.9999999999998
  3
ISO-25
100
AcDbAlignedDimension
 13
9506.50344053106
 23
1158.87996552104
 33
0.0
 14
9506.50344053106
 24
729.8799655210402
 34
0.0
 50
90.0
100
AcDbRotatedDimension
  0
DIMENSION
  5
1339
102
{ACAD_XDICTIONARY
360
1342
102
}
102
{ACAD_REACTORS
330
1348
102
}
330
1F
100
AcDbEntity
  8
0
100
AcDbDimension
  2
*D3
 10
9008.664158044739
 20
823.8536597477716
 30
0.0
 11
8986.523362844307
 21
804.2375961134599
 31
0.0
 70
   164
 71
     5
 42
89.9999999999909
  3
ISO-25
100
AcDbRadialDimension
 15
8941.299747293077
 25
764.1708635324508
 35
0.0
 40
0.0
1001
ACAD
1000
DSTYLE
1002
{
1070
   288
1070
     1
1002
}
  0
DIMENSION
  5
1349
102
{ACAD_XDICTIONARY
360
1352
102
}
102
{ACAD_REACTORS
330
1358
102
}
330
1F
100
AcDbEntity
  8
0
100
AcDbDimension
  2
*D4
 10
10413.50344053106
 20
944.3799655210384
 30
0.0
 11
8992.507537310979
 21
963.4140912904534
 31
0.0
 70
   164
 71
     5
 42
1499.999999999998
  3
ISO-25
100
AcDbRadialDimension
 15
8913.637990327062
 25
964.4705425252999
 35
0.0
 40
0.0
1001
ACAD
1000
DSTYLE
1002
{
1070
   288
1070
     1
1002
}
  0
DIMENSION
  5
1359
102
{ACAD_XDICTIONARY
360
1362
102
}
102
{ACAD_REACTORS
330
1368
102
}
330
1F
100
AcDbEntity
  8
0
100
AcDbDimension
  2
*D5
 10
9600.342723017366
 20
823.8536597477748
 30
0.0
 11
9622.60801379327
 21
804.3790200520579
 31
0.0
 70
   164
 71
     5
 42
90.00000000000182
  3
ISO-25
100
AcDbRadialDimension
 15
9668.08591741282
 25
764.6011525172789
 35
0.0
 40
0.0
1001
ACAD
1000
DSTYLE
1002
{
1070
   288
1070
     1
1002
}
  0
DIMENSION
  5
1369
102
{ACAD_XDICTIONARY
360
1372
102
}
102
{ACAD_REACTORS
330
1378
102
}
330
1F
100
AcDbEntity
  8
0
100
AcDbDimension
  2
*D6
 10
9600.342723017368
 20
1064.906271294301
 30
0.0
 11
9618.691868184818
 21
1088.107858227903
 31
0.0
 70
   164
 71
     5
 42
90.00000000000273
  3
ISO-25
100
AcDbRadialDimension
 15
9656.170860209904
 25
1135.498190786636
 35
0.0
 40
0.0
1001
ACAD
1000
DSTYLE
1002
{
1070
   288
1070
     1
1002
}
  0
DIMENSION
  5
1379
102
{ACAD_XDICTIONARY
360
1382
102
}
102
{ACAD_REACTORS
330
1388
102
}
330
1F
100
AcDbEntity
  8
0
100
AcDbDimension
  2
*D7
 10
9102.503440531064
 20
-41.12003447895943
 30
0.0
 11
9064.984097949944
 21
1079.375359160862
 31
0.0
 70
   164
 71
     5
 42
1200.0
  3
ISO-25
100
AcDbRadialDimension
 15
9062.344425038997
 25
1158.207799549213
 35
0.0
 40
0.0
1001
ACAD
1000
DSTYLE
1002
{
1070
   288
1070
     1
1002
}
  0
DIMENSION
  5
1389
102
{ACAD_XDICTIONARY
360
1392
102
}
102
{ACAD_REACTORS
330
1398
102
}
330
1F
100
AcDbEntity
  8
0
100
AcDbDimension
  2
*D8
 10
9102.503440531073
 20
1929.879965521045
 30
0.0
 11
9072.829805763857
 21
809.1493539843153
 31
0.0
 70
   164
 71
     5
 42
1200.000000000004
  3
ISO-25
100
AcDbRadialDimension
 15
9070.742117534908
 25
730.3003648435645
 35
0.0
 40
0.0
1001
ACAD
1000
DSTYLE
1002
{
1070
   288
1070
     1
1002
}
  0
DIMENSION
  5
1399
102
{ACAD_XDICTIONARY
360
13A2
102
}
102
{ACAD_REACTORS
330
13A8
102
}
330
1F
100
AcDbEntity
  8
0
100
AcDbDimension
  2
*D9
 10
8195.50344053106
 20
944.3799655210403
 30
0.0
 11
9616.580088494337
 21
955.9045273571262
 31
0.0
 70
   164
 71
     5
 42
1500.000000000001
  3
ISO-25
100
AcDbRadialDimension
 15
9695.454117054381
 25
956.5441752049077
 35
0.0
 40
0.0
1001
ACAD
1000
DSTYLE
1002
{
1070
   288
1070
     1
1002
}
  0
DIMENSION
  5
13A9
102
{ACAD_XDICTIONARY
360
13B2
102
}
102
{ACAD_REACTORS
330
13B8
102
}
330
1F
100
AcDbEntity
  8
0
100
AcDbDimension
  2
*D10
 10
9008.664158044751
 20
1064.906271294305
 30
0.0
 11
8991.592404263576
 21
1089.063257601547
 31
0.0
 70
   164
 71
     5
 42
90.00000000000182
  3
ISO-25
100
AcDbRadialDimension
 15
8956.722544224852
 25
1138.405038316513
 35
0.0
 40
0.0
1001
ACAD
1000
DSTYLE
1002
{
1070
   288
1070
     1
1002
}
  0
DIMENSION
  5
145D
102
{ACAD_XDICTIONARY
360
1466
102
}
102
{ACAD_REACTORS
330
146C
102
}
330
1F
100
AcDbEntity
  8
0
100
AcDbDimension
  2
*D11
 10
9506.503440531076
 20
-41.12003447895953
 30
0.0
 11
9558.400033291752
 21
1078.801557372724
 31
0.0
 70
   164
 71
     5
 42
1199.999999999999
  3
ISO-25
100
AcDbRadialDimension
 15
9562.05121747188
 25
1157.593627942943
 35
0.0
 40
0.0
1001
ACAD
1000
DSTYLE
1002
{
1070
   288
1070
     1
1002
}
  0
DIMENSION
  5
146D
102
{ACAD_XDICTIONARY
360
1476
102
}
102
{ACAD_REACTORS
330
147C
102
}
330
1F
100
AcDbEntity
  8
0
100
AcDbDimension
  2
*D12
 10
9506.50344053106
 20
1929.879965521038
 30
0.0
 11
9555.538470017991
 21
809.8294335721503
 31
0.0
 70
   164
 71
     5
 42
1199.999999999999
  3
ISO-25
100
AcDbRadialDimension
 15
9558.988328947275
 25
731.0282914228903
 35
0.0
 40
0.0
1001
ACAD
1000
DSTYLE
1002
{
1070
   288
1070
     1
1002
}
  0
DIMENSION
  5
1488
330
1F
100
AcDbEntity
  8
0
100
AcDbDimension
  2
*D13
 10
9699.50344053106
 20
621.6040779959294
 30
0.0
 11
9304.50344053106
 21
634.9814211826632
 31
0.0
 70
    32
 71
     5
 42
790.0
  3
ISO-25
100
AcDbAlignedDimension
 13
8909.503440531059
 23
944.379965521041
 33
0.0
 14
9699.50344053106
 24
944.3799655210396
 34
0.0
100
AcDbRotatedDimension
  0
DIMENSION
  5
14A0
330
1F
100
AcDbEntity
  8
0
100
AcDbDimension
  2
*D14
 10
9824.112485303814
 20
725.8799655210396
 30
0.0
 11
9810.735142117081
 21
944.3799655210415
 31
0.0
 70
    32
 71
     5
 42
437.0000000000005
  3
ISO-25
100
AcDbAlignedDimension
 13
9506.50344053106
 23
1162.87996552104
 33
0.0
 14
9506.50344053106
 24
725.8799655210396
 34
0.0
 50
90.0
100
AcDbRotatedDimension
  0
DIMENSION
  5
14CA
330
1F
100
AcDbEntity
  8
0
100
AcDbDimension
  2
*D15
 10
9699.50344053106
 20
663.7851225311877
 30
0.0
 11
9738.428728923274
 21
676.9101225311877
 31
0.0
 70
    32
 71
     5
 42
4.0
  3
ISO-25
100
AcDbAlignedDimension
 13
9695.50344053106
 23
682.5641159942206
 33
0.0
 14
9699.50344053106
 24
682.3456569990626
 34
0.0
100
AcDbRotatedDimension
  0
DIMENSION
  5
14D9
330
1F
100
AcDbEntity
  8
0
100
AcDbDimension
  2
*D16
 10
9772.73444065428
 20
1162.87996552104
 30
0.0
 11
9781.659729046493
 21
1206.004965521042
 31
0.0
 70
    32
 71
     5
 42
4.000000000000227
  3
ISO-25
100
AcDbAlignedDimension
 13
9742.76616525497
 23
1158.87996552104
 33
0.0
 14
9742.76616525497
 24
1162.87996552104
 34
0.0
 50
90.0
100
AcDbRotatedDimension
  0
ARC
  5
182E
330
1F
100
AcDbEntity
  8
0
370
    40
100
AcDbCircle
 10
9008.66415804475
 20
823.8536597477761
 30
0.0
 40
94.0
100
AcDbArc
 50
184.9036071477174
 51
265.150432486935
  0
ARC
  5
182F
330
1F
100
AcDbEntity
  8
0
370
    40
100
AcDbCircle
 10
10413.50344053106
 20
944.3799655210396
 30
0.0
 40
1504.0
100
AcDbArc
 50
175.0963928522824
 51
184.9036071477175
  0
ARC
  5
1830
330
1F
100
AcDbEntity
  8
0
370
    40
100
AcDbCircle
 10
9102.503440531057
 20
1929.87996552104
 30
0.0
 40
1204.0
100
AcDbArc
 50
265.1504324869344
 51
270.0
  0
LINE
  5
1831
102
{ACAD_REACTORS
330
1338
102
}
330
1F
100
AcDbEntity
  8
0
370
    40
100
AcDbLine
 10
9102.503440531057
 20
725.8799655210403
 30
0.0
 11
9506.50344053106
 21
725.8799655210403
 31
0.0
  0
ARC
  5
1832
330
1F
100
AcDbEntity
  8
0
370
    40
100
AcDbCircle
 10
9506.50344053106
 20
1929.87996552104
 30
0.0
 40
1204.0
100
AcDbArc
 50
270.0
 51
274.8495675130656
  0
ARC
  5
1833
330
1F
100
AcDbEntity
  8
0
370
    40
100
AcDbCircle
 10
9600.342723017368
 20
823.8536597477761
 30
0.0
 40
94.0
100
AcDbArc
 50
274.8495675130651
 51
355.0963928522826
  0
ARC
  5
1834
330
1F
100
AcDbEntity
  8
0
370
    40
100
AcDbCircle
 10
8195.50344053106
 20
944.3799655210396
 30
0.0
 40
1504.0
100
AcDbArc
 50
355.0963928522825
 51
4.903607147717575
  0
ARC
  5
1835
330
1F
100
AcDbEntity
  8
0
370
    40
100
AcDbCircle
 10
9600.342723017368
 20
1064.906271294305
 30
0.0
 40
94.0
100
AcDbArc
 50
4.903607147717805
 51
85.15043248693496
  0
ARC
  5
1836
330
1F
100
AcDbEntity
  8
0
370
    40
100
AcDbCircle
 10
9506.50344053106
 20
-41.1200344789595
 30
0.0
 40
1204.0
100
AcDbArc
 50
85.15043248693443
 51
90.0
  0
LINE
  5
1837
102
{ACAD_REACTORS
330
1338
102
}
330
1F
100
AcDbEntity
  8
0
370
    40
100
AcDbLine
 10
9102.503440531057
 20
1162.87996552104
 30
0.0
 11
9506.50344053106
 21
1162.87996552104
 31
0.0
  0
ARC
  5
1838
330
1F
100
AcDbEntity
  8
0
370
    40
100
AcDbCircle
 10
9102.503440531057
 20
-41.1200344789595
 30
0.0
 40
1204.0
100
AcDbArc
 50
90.0
 51
94.84956751306558
  0
ARC
  5
1839
330
1F
100
AcDbEntity
  8
0
370
    40
100
AcDbCircle
 10
9008.66415804475
 20
1064.906271294305
 30
0.0
 40
94.0
100
AcDbArc
 50
94.84956751306505
 51
175.0963928522821
  0
ENDSEC
  0
SECTION
  2
OBJECTS
  0
DICTIONARY
  5
C
330
0
100
AcDbDictionary
281
     1
  3
ACAD_COLOR
350
73
  3
ACAD_GROUP
350
D
  3
ACAD_LAYOUT
350
1A
  3
ACAD_MATERIAL
350
72
  3
ACAD_MLINESTYLE
350
17
  3
ACAD_PLOTSETTINGS
350
19
  3
ACAD_PLOTSTYLENAME
350
E
  3
ACAD_TABLESTYLE
350
189B
  3
ACDBHEADERROUNDTRIPXREC
350
18A5
  3
AcDbVariableDictionary
350
66
  3
ASE_INDEX_DICTIONARY
350
183B
  0
DICTIONARY
  5
1316
330
1309
100
AcDbDictionary
280
     1
281
     1
  3
ACAD_DIMASSOC
360
1320
  0
DICTIONARY
  5
132E
330
1321
100
AcDbDictionary
280
     1
281
     1
  3
ACAD_DIMASSOC
360
1338
  0
DICTIONARY
  5
1342
330
1339
100
AcDbDictionary
280
     1
281
     1
  3
ACAD_DIMASSOC
360
1348
  0
DICTIONARY
  5
1352
330
1349
100
AcDbDictionary
280
     1
281
     1
  3
ACAD_DIMASSOC
360
1358
  0
DICTIONARY
  5
1362
330
1359
100
AcDbDictionary
280
     1
281
     1
  3
ACAD_DIMASSOC
360
1368
  0
DICTIONARY
  5
1372
330
1369
100
AcDbDictionary
280
     1
281
     1
  3
ACAD_DIMASSOC
360
1378
  0
DICTIONARY
  5
1382
330
1379
100
AcDbDictionary
280
     1
281
     1
  3
ACAD_DIMASSOC
360
1388
  0
DICTIONARY
  5
1392
330
1389
100
AcDbDictionary
280
     1
281
     1
  3
ACAD_DIMASSOC
360
1398
  0
DICTIONARY
  5
13A2
330
1399
100
AcDbDictionary
280
     1
281
     1
  3
ACAD_DIMASSOC
360
13A8
  0
DICTIONARY
  5
13B2
330
13A9
100
AcDbDictionary
280
     1
281
     1
  3
ACAD_DIMASSOC
360
13B8
  0
DICTIONARY
  5
1466
330
145D
100
AcDbDictionary
280
     1
281
     1
  3
ACAD_DIMASSOC
360
146C
  0
DICTIONARY
  5
1476
330
146D
100
AcDbDictionary
280
     1
281
     1
  3
ACAD_DIMASSOC
360
147C
  0
DICTIONARY
  5
73
102
{ACAD_REACTORS
330
C
102
}
330
C
100
AcDbDictionary
281
     1
  0
DICTIONARY
  5
D
102
{ACAD_REACTORS
330
C
102
}
330
C
100
AcDbDictionary
281
     1
  0
DICTIONARY
  5
1A
102
{ACAD_REACTORS
330
C
102
}
330
C
100
AcDbDictionary
281
     1
  3
Model
350
22
  3
布局1
350
59
  3
布局2
350
5E
  0
DICTIONARY
  5
72
102
{ACAD_REACTORS
330
C
102
}
330
C
100
AcDbDictionary
281
     1
  0
DICTIONARY
  5
17
102
{ACAD_REACTORS
330
C
102
}
330
C
100
AcDbDictionary
281
     1
  3
Standard
350
18
  0
DICTIONARY
  5
19
102
{ACAD_REACTORS
330
C
102
}
330
C
100
AcDbDictionary
281
     1
  0
ACDBDICTIONARYWDFLT
  5
E
102
{ACAD_REACTORS
330
C
102
}
330
C
100
AcDbDictionary
281
     1
  3
Normal
350
F
100
AcDbDictionaryWithDefault
340
F
  0
DICTIONARY
  5
189B
102
{ACAD_REACTORS
330
C
102
}
330
C
100
AcDbDictionary
281
     1
  3
Standard
350
189C
  0
DICTIONARY
  5
18A5
102
{ACAD_REACTORS
330
C
102
}
330
C
100
AcDbDictionary
281
     1
  0
DICTIONARY
  5
66
102
{ACAD_REACTORS
330
C
102
}
330
C
100
AcDbDictionary
281
     1
  3
CTABLESTYLE
350
18A3
  3
DIMASSOC
350
67
  3
HIDETEXT
350
6B
  3
PROJECTNAME
350
181B
  0
DICTIONARY
  5
183B
102
{ACAD_REACTORS
330
C
102
}
330
C
100
AcDbDictionary
281
     1
  3
ASEBlockHierarchyIndexRecord
350
183D
1001
DCO15
1040
1626777345.531
  0
DIMASSOC
  5
1320
102
{ACAD_REACTORS
330
1316
102
}
330
1316
100
AcDbDimAssoc
330
1309
 90
        3
 70
     0
 71
     0
  1
AcDbOsnapPointRef
 72
     2
331
12DA
 73
     2
 91
        0
 40
3.141592653589792
 10
0.0
 20
0.0
 30
0.0
 75
     0
  1
AcDbOsnapPointRef
 72
     2
331
12EE
 73
     2
 91
        0
 40
6.283185307179588
 10
0.0
 20
0.0
 30
0.0
 75
     0
  0
DIMASSOC
  5
1338
102
{ACAD_REACTORS
330
132E
102
}
330
132E
100
AcDbDimAssoc
330
1321
 90
        3
 70
     0
 71
     0
  1
AcDbOsnapPointRef
 72
     1
331
12FA
 73
     2
 91
        0
 40
1.0
 10
0.0
 20
0.0
 30
2.000000000000000E+50
 75
     0
  1
AcDbOsnapPointRef
 72
     1
331
12FB
 73
     2
 91
        0
 40
1.0
 10
0.0
 20
0.0
 30
2.000000000000000E+50
 75
     0
  0
DIMASSOC
  5
1348
102
{ACAD_REACTORS
330
1342
102
}
330
1342
100
AcDbDimAssoc
330
1339
 90
        2
 70
     0
 71
     0
  1
AcDbOsnapPointRef
 72
     3
331
12E7
 73
     2
 91
        0
 40
0.0
 10
0.0
 20
0.0
 30
0.0
 75
     0
  0
DIMASSOC
  5
1358
102
{ACAD_REACTORS
330
1352
102
}
330
1352
100
AcDbDimAssoc
330
1349
 90
        2
 70
     0
 71
     0
  1
AcDbOsnapPointRef
 72
     3
331
12DA
 73
     2
 91
        0
 40
0.0
 10
0.0
 20
0.0
 30
0.0
 75
     0
  0
DIMASSOC
  5
1368
102
{ACAD_REACTORS
330
1362
102
}
330
1362
100
AcDbDimAssoc
330
1359
 90
        2
 70
     0
 71
     0
  1
AcDbOsnapPointRef
 72
     3
331
12ED
 73
     2
 91
        0
 40
0.0
 10
0.0
 20
0.0
 30
0.0
 75
     0
  0
DIMASSOC
  5
1378
102
{ACAD_REACTORS
330
1372
102
}
330
1372
100
AcDbDimAssoc
330
1369
 90
        2
 70
     0
 71
     0
  1
AcDbOsnapPointRef
 72
     3
331
12F2
 73
     2
 91
        0
 40
0.0
 10
0.0
 20
0.0
 30
0.0
 75
     0
  0
DIMASSOC
  5
1388
102
{ACAD_REACTORS
330
1382
102
}
330
1382
100
AcDbDimAssoc
330
1379
 90
        2
 70
     0
 71
     0
  1
AcDbOsnapPointRef
 72
     3
331
12E1
 73
     2
 91
        0
 40
0.0
 10
0.0
 20
0.0
 30
0.0
 75
     0
  0
DIMASSOC
  5
1398
102
{ACAD_REACTORS
330
1392
102
}
330
1392
100
AcDbDimAssoc
330
1389
 90
        2
 70
     0
 71
     0
  1
AcDbOsnapPointRef
 72
     3
331
12E4
 73
     2
 91
        0
 40
0.0
 10
0.0
 20
0.0
 30
0.0
 75
     0
  0
DIMASSOC
  5
13A8
102
{ACAD_REACTORS
330
13A2
102
}
330
13A2
100
AcDbDimAssoc
330
1399
 90
        2
 70
     0
 71
     0
  1
AcDbOsnapPointRef
 72
     3
331
12EE
 73
     2
 91
        0
 40
0.0
 10
0.0
 20
0.0
 30
0.0
 75
     0
  0
DIMASSOC
  5
13B8
102
{ACAD_REACTORS
330
13B2
102
}
330
13B2
100
AcDbDimAssoc
330
13A9
 90
        2
 70
     0
 71
     0
  1
AcDbOsnapPointRef
 72
     3
331
12E6
 73
     2
 91
        0
 40
0.0
 10
0.0
 20
0.0
 30
0.0
 75
     0
  0
DIMASSOC
  5
146C
102
{ACAD_REACTORS
330
1466
102
}
330
1466
100
AcDbDimAssoc
330
145D
 90
        2
 70
     0
 71
     0
  1
AcDbOsnapPointRef
 72
     3
331
12F4
 73
     2
 91
        0
 40
0.0
 10
0.0
 20
0.0
 30
0.0
 75
     0
  0
DIMASSOC
  5
147C
102
{ACAD_REACTORS
330
1476
102
}
330
1476
100
AcDbDimAssoc
330
146D
 90
        2
 70
     0
 71
     0
  1
AcDbOsnapPointRef
 72
     3
331
12EF
 73
     2
 91
        0
 40
0.0
 10
0.0
 20
0.0
 30
0.0
 75
     0
  0
LAYOUT
  5
22
102
{ACAD_XDICTIONARY
360
18A6
102
}
102
{ACAD_REACTORS
330
1A
102
}
330
1A
100
AcDbPlotSettings
  1

  2
EPSON Stylus Photo 830U Series
  4
A4
  6

 40
3.757083177566528
 41
14.7637300491333
 42
3.757080078125
 43
3.757080078125
 44
209.9733276367186
 45
296.9683227539062
 46
0.43
 47
0.0
 48
86.53747570817206
 49
46.97208371375261
140
1172.537475708172
141
1546.972083713753
142
1.0
143
5.387011669992006
 70
 11956
 72
     1
 73
     0
 74
     4
  7

 75
     0
147
0.185631675084432
148
-86.53747570817206
149
-46.97208371375261
100
AcDbLayout
  1
Model
 70
     1
 71
     0
 10
0.0
 20
0.0
 11
12.0
 21
9.0
 12
0.0
 22
0.0
 32
0.0
 14
0.0
 24
0.0
 34
0.0
 15
0.0
 25
0.0
 35
0.0
146
0.0
 13
0.0
 23
0.0
 33
0.0
 16
1.0
 26
0.0
 36
0.0
 17
0.0
 27
1.0
 37
0.0
 76
     0
330
1F
  0
LAYOUT
  5
59
102
{ACAD_XDICTIONARY
360
18A8
102
}
102
{ACAD_REACTORS
330
1A
102
}
330
1A
100
AcDbPlotSettings
  1

  2
None
  4

  6

 40
0.0
 41
0.0
 42
0.0
 43
0.0
 44
0.0
 45
0.0
 46
0.0
 47
0.0
 48
0.0
 49
0.0
140
0.0
141
0.0
142
1.0
143
1.0
 70
   688
 72
     0
 73
     0
 74
     5
  7

 75
    16
147
1.0
148
0.0
149
0.0
100
AcDbLayout
  1
布局1
 70
     1
 71
     1
 10
0.0
 20
0.0
 11
12.0
 21
9.0
 12
0.0
 22
0.0
 32
0.0
 14
0.0
 24
0.0
 34
0.0
 15
0.0
 25
0.0
 35
0.0
146
0.0
 13
0.0
 23
0.0
 33
0.0
 16
1.0
 26
0.0
 36
0.0
 17
0.0
 27
1.0
 37
0.0
 76
     0
330
58
  0
LAYOUT
  5
5E
102
{ACAD_XDICTIONARY
360
18AA
102
}
102
{ACAD_REACTORS
330
1A
102
}
330
1A
100
AcDbPlotSettings
  1

  2
None
  4

  6

 40
0.0
 41
0.0
 42
0.0
 43
0.0
 44
0.0
 45
0.0
 46
0.0
 47
0.0
 48
0.0
 49
0.0
140
0.0
141
0.0
142
1.0
143
1.0
 70
   688
 72
     0
 73
     0
 74
     5
  7

 75
    16
147
1.0
148
0.0
149
0.0
100
AcDbLayout
  1
布局2
 70
     1
 71
     2
 10
0.0
 20
0.0
 11
12.0
 21
9.0
 12
0.0
 22
0.0
 32
0.0
 14
0.0
 24
0.0
 34
0.0
 15
0.0
 25
0.0
 35
0.0
146
0.0
 13
0.0
 23
0.0
 33
0.0
 16
1.0
 26
0.0
 36
0.0
 17
0.0
 27
1.0
 37
0.0
 76
     0
330
5D
  0
MLINESTYLE
  5
18
102
{ACAD_REACTORS
330
17
102
}
330
17
100
AcDbMlineStyle
  2
STANDARD
 70
     0
  3

 62
   256
 51
90.0
 52
90.0
 71
     2
 49
0.5
 62
   256
  6
BYLAYER
 49
-0.5
 62
   256
  6
BYLAYER
  0
ACDBPLACEHOLDER
  5
F
102
{ACAD_REACTORS
330
E
102
}
330
E
  0
TABLESTYLE
  5
189C
102
{ACAD_REACTORS
330
189B
102
}
330
189B
100
AcDbTableStyle
  3
Standard
 70
     0
 71
     0
 40
0.06
 41
0.06
280
     0
281
     0
  7
Standard
140
0.18
170
     2
 62
     0
 63
     7
283
     0
274
    -2
284
     1
 64
     0
275
    -2
285
     1
 65
     0
276
    -2
286
     1
 66
     0
277
    -2
287
     1
 67
     0
278
    -2
288
     1
 68
     0
279
    -2
289
     1
 69
     0
  7
Standard
140
0.25
170
     5
 62
     0
 63
     7
283
     0
274
    -2
284
     1
 64
     0
275
    -2
285
     1
 65
     0
276
    -2
286
     1
 66
     0
277
    -2
287
     1
 67
     0
278
    -2
288
     1
 68
     0
279
    -2
289
     1
 69
     0
  7
Standard
140
0.18
170
     5
 62
     0
 63
     7
283
     0
274
    -2
284
     1
 64
     0
275
    -2
285
     1
 65
     0
276
    -2
286
     1
 66
     0
277
    -2
287
     1
 67
     0
278
    -2
288
     1
 68
     0
279
    -2
289
     1
 69
     0
  0
DICTIONARYVAR
  5
18A3
102
{ACAD_REACTORS
330
66
102
}
330
66
100
DictionaryVariables
280
     0
  1
STANDARD
  0
DICTIONARYVAR
  5
67
102
{ACAD_REACTORS
330
66
102
}
330
66
100
DictionaryVariables
280
     0
  1
2
  0
DICTIONARYVAR
  5
6B
102
{ACAD_REACTORS
330
66
102
}
330
66
100
DictionaryVariables
280
     0
  1
1
  0
DICTIONARYVAR
  5
181B
102
{ACAD_REACTORS
330
66
102
}
330
66
100
DictionaryVariables
280
     0
  1

  0
XRECORD
  5
183D
102
{ACAD_REACTORS
330
183B
102
}
330
183B
100
AcDbXrecord
280
     1
  0
DICTIONARY
  5
18A6
330
22
100
AcDbDictionary
280
     1
281
     1
  3
ACAD_XREC_ROUNDTRIP
360
18A7
  0
DICTIONARY
  5
18A8
330
59
100
AcDbDictionary
280
     1
281
     1
  3
ACAD_XREC_ROUNDTRIP
360
18A9
  0
DICTIONARY
  5
18AA
330
5E
100
AcDbDictionary
280
     1
281
     1
  3
ACAD_XREC_ROUNDTRIP
360
18AB
  0
XRECORD
  5
18A7
102
{ACAD_REACTORS
330
18A6
102
}
330
18A6
100
AcDbXrecord
280
     1
102
SHADEPLOT
 70
     0
102
SHADEPLOTRESLEVEL
 70
     2
102
SHADEPLOTCUSTOMDPI
 70
   180
  0
XRECORD
  5
18A9
102
{ACAD_REACTORS
330
18A8
102
}
330
18A8
100
AcDbXrecord
280
     1
102
SHADEPLOT
 70
     0
102
SHADEPLOTRESLEVEL
 70
     2
102
SHADEPLOTCUSTOMDPI
 70
   300
  0
XRECORD
  5
18AB
102
{ACAD_REACTORS
330
18AA
102
}
330
18AA
100
AcDbXrecord
280
     1
102
SHADEPLOT
 70
     0
102
SHADEPLOTRESLEVEL
 70
     2
102
SHADEPLOTCUSTOMDPI
 70
   300
  0
ENDSEC
  0
EOF
